<?xml version="1.0" standalone="no"?>
<!DOCTYPE svg PUBLIC "-//W3C//DTD SVG 1.1//EN" "http://www.w3.org/Graphics/SVG/1.1/DTD/svg11.dtd" >
<svg xmlns="http://www.w3.org/2000/svg">
<metadata>Generated by IcoMoon</metadata>
<defs>
<font id="Local-Icons" horiz-adv-x="1024">
<font-face units-per-em="1024" ascent="960" descent="-64" />
<missing-glyph horiz-adv-x="1024" />
<glyph unicode="&#x20;" horiz-adv-x="512" d="" />
<glyph unicode="&#xe900;" glyph-name="quote" d="M284.444 478.458c52.149-4.685 91.654-20.305 118.519-46.859 26.863-26.554 40.297-71.851 40.297-135.891v-35.145c0-37.489-1.581-65.604-4.74-84.348-1.581-18.743-8.693-40.61-21.333-65.602-23.706-45.297-83.755-67.947-180.149-67.947s-160.395 15.62-192 46.859c-30.025 31.241-45.037 90.596-45.037 178.067 0 39.049 1.58 67.945 4.741 86.688 11.062 137.455 52.148 254.603 123.259 351.445 71.111 98.405 161.186 147.607 270.223 147.607 11.061 0 20.542-8.591 28.444-25.773 9.481-15.62 14.223-36.707 14.223-63.26 0-24.992-3.951-45.297-11.853-60.917-6.321-15.62-14.223-24.992-23.703-28.115-7.902-1.562-14.223-3.125-18.963-4.687-4.74 0-13.431-3.904-26.074-11.714-11.061-6.249-21.333-15.62-30.816-28.115-26.863-31.241-41.875-82.005-45.037-152.294zM862.814 478.458c52.149-4.685 91.654-21.086 118.519-49.201 28.444-26.554 42.667-82.786 42.667-168.693 0-92.158-16.593-150.731-49.777-175.723-39.507-28.115-100.346-42.174-182.519-42.174-80.593 0-136.691 15.62-168.297 46.859-30.025 31.241-45.037 90.596-45.037 178.067 0 39.049 1.581 67.945 4.74 86.688 11.063 137.455 52.149 254.603 123.26 351.445 72.691 98.405 163.556 147.607 272.593 147.607 11.061 0 20.542-8.591 28.444-25.773 9.483-15.62 14.223-36.707 14.223-63.26 0-24.992-3.951-45.297-11.853-60.917-6.321-15.62-14.221-24.992-23.703-28.115-7.9-1.562-14.221-3.125-18.963-4.687-4.74 0-13.431-3.904-26.074-11.714-12.642-6.249-23.703-15.62-33.184-28.115-26.865-31.241-41.877-82.005-45.039-152.294z" />
<glyph unicode="&#xe901;" glyph-name="Report" d="M290.133 755.2h400.681c15.401 0 29.027-8.953 36.956-24.425 7.97-15.55 8.649-35.234-1.103-52.319l-20.89-36.602c-26.542-46.505-26.542-104.931 0-151.434l20.89-36.601c9.752-17.087 9.073-36.772 1.103-52.32-7.929-15.473-21.555-24.426-36.956-24.426h-400.681v378.126zM290.133 308.808h400.681c44.998 0 80.032 27.068 97.71 61.553 17.637 34.41 19.507 78.623-2.567 117.296l-20.89 36.605c-14.572 25.532-14.572 58.221 0 83.753l20.89 36.603c22.074 38.673 20.204 82.887 2.567 117.296-17.678 34.488-52.712 61.554-97.71 61.554h-434.814c-18.851 0-34.133-15.282-34.133-34.133v-682.667c0-18.852 15.282-34.133 34.133-34.133s34.133 15.281 34.133 34.133v202.141z" />
<glyph unicode="&#xe902;" glyph-name="return" d="M319.938 667.061c-3.659-13.657-17.697-21.761-31.354-18.102l-179.269 48.035c-13.657 3.659-21.761 17.697-18.102 31.354l48.035 179.269c3.659 13.657 17.697 21.761 31.354 18.102s21.761-17.696 18.102-31.353l-41.409-154.542 154.541-41.409c13.657-3.659 21.761-17.697 18.102-31.354zM618.831 753.064c-128.55 114.616-325.673 103.32-440.289-25.229-9.409-10.553-25.591-11.48-36.144-2.071s-11.48 25.592-2.071 36.145c133.434 149.655 362.922 162.805 512.577 29.372 10.554-9.409 11.482-25.592 2.072-36.145-9.407-10.553-25.59-11.48-36.144-2.071zM531.504 593.067v-189.652l48.135 34.959c10.537 7.653 24.808 7.642 35.335-0.024l47.848-34.85v189.566h-131.318zM480.304 610.133c0 18.851 15.281 34.133 34.133 34.133h165.451c18.852 0 34.133-15.282 34.133-34.133v-248.228c0-24.559-27.87-38.738-47.718-24.279l-69.031 50.275-69.28-50.313c-19.855-14.421-47.688-0.236-47.688 24.303v248.241zM273.067 81.067c0-47.128 38.205-85.333 85.333-85.333h477.867c47.128 0 85.333 38.205 85.333 85.333v477.867c0 47.128-38.205 85.333-85.333 85.333h-477.867c-47.128 0-85.333-38.205-85.333-85.333v-477.867zM358.4 46.933c-18.851 0-34.133 15.281-34.133 34.133v477.867c0 18.852 15.282 34.133 34.133 34.133h477.867c18.852 0 34.133-15.281 34.133-34.133v-477.867c0-18.852-15.281-34.133-34.133-34.133h-477.867z" />
<glyph unicode="&#xe903;" glyph-name="search" d="M481.085 809.273c-182.472 0-330.357-147.886-330.357-330.357s147.886-330.361 330.357-330.361c182.435 0 330.361 147.889 330.361 330.361 0 182.469-147.926 330.357-330.361 330.357zM80.909 478.915c0 221.031 179.144 400.175 400.175 400.175 220.989 0 400.179-179.142 400.179-400.175 0-221.035-179.191-400.179-400.179-400.179-221.031 0-400.175 179.144-400.175 400.179zM849.022 136.294c-13.973 0-25.311-11.366-25.311-25.27 0-13.987 11.338-25.311 25.311-25.311 13.945 0 25.27 11.297 25.27 25.311 0 13.936-11.325 25.27-25.27 25.27zM753.892 111.025c0 52.494 42.626 95.088 95.13 95.088 52.536 0 95.088-42.626 95.088-95.088 0-52.545-42.552-95.13-95.088-95.13-52.503 0-95.13 42.552-95.13 95.13z" />
<glyph unicode="&#xe904;" glyph-name="star" d="M512.002 960c25.984 0 49.715-15.405 61.215-39.738l121.246-256.523 271.148-41.39c25.702-3.924 47.049-22.746 55.064-48.555s1.304-54.131-17.306-73.062l-196.144-199.518 46.285-281.868c4.396-26.747-6.137-53.78-27.156-69.734-21.026-15.947-48.899-18.050-71.898-5.42l-242.454 133.161-242.452-133.161c-23-12.629-50.873-10.527-71.898 5.42-21.024 15.954-31.554 42.988-27.161 69.734l46.291 281.868-196.145 199.518c-18.611 18.93-25.319 47.252-17.306 73.062s29.359 44.631 55.065 48.555l271.146 41.39 121.245 256.523c11.501 24.333 35.232 39.738 61.215 39.738z" />
<glyph unicode="&#xe905;" glyph-name="Toys" d="M200.558 816.413c4.881 4.053 11.313 5.723 17.55 4.556 61.871-11.571 121.525-53.381 167.294-96.799 45.668-43.322 81.385-91.981 93.463-121.816 11.191-27.632 14.003-32.908 24.64-37.304 6.972-2.88 18.082-5.256 37.376-6.732 19.063-1.459 44.433-1.944 79.066-1.944 19.439 0 36.574-4.697 51.597-12.678 10.91 12.848 24.179 23.553 39.125 31.516 18.893 10.065 39.927 15.456 61.333 15.721l0.265 0.003c22.221 0 39.595-9.98 53.321-22.042 11.797-10.366 22.391-23.669 31.757-35.424 1.101-1.386 2.185-2.747 3.255-4.082 22.263-27.802 39.458-45.547 65.267-45.547 8.538 0 16.252-5.090 19.61-12.937 3.362-7.846 1.719-16.943-4.173-23.121-12.19-12.779-26.991-22.784-43.392-29.329-16.405-6.545-34.031-9.476-51.669-8.593s-34.884 5.555-50.551 13.705c-15.671 8.149-29.402 19.58-40.256 33.51-0.307 0.397-0.602 0.806-0.883 1.225-11.311 16.853-20.224 24.128-26.167 27.243 16.397-27.947 27.657-60.919 35.52-92.557 9.498-38.212 14.443-76.169 17.024-104.401 1.297-14.161 2.010-25.984 2.398-34.3 0.196-4.16 0.307-7.45 0.375-9.724l0.064-2.637 0.013-0.713 0.004-0.201v-0.060c0-0.009 0-0.034-21.329-0.311l21.329 0.311c0.111-8.559-4.902-16.393-12.74-19.84l-85.333-37.547c-5.508-2.423-11.785-2.406-17.28 0.047-5.491 2.449-9.694 7.1-11.571 12.809-0.004 0.004 0 0 0 0l-0.073 0.205-0.329 0.947c-0.307 0.875-0.794 2.219-1.455 3.964-1.331 3.494-3.375 8.585-6.14 14.729-5.564 12.352-13.926 28.672-25.156 44.847-23.044 33.173-54.699 61.022-95.492 61.022-40.649 0-71.437-27.678-93.585-60.732-10.809-16.124-18.756-32.405-24.009-44.736-2.613-6.135-4.527-11.213-5.769-14.699-0.621-1.745-1.072-3.085-1.358-3.955l-0.304-0.939-0.058-0.183c-3.235-10.624-14.083-16.998-24.936-14.643l-100.267 21.76c-10.47 2.27-17.631 11.955-16.734 22.63l26.88 320.002c0.383 4.559 2.173 8.662 4.906 11.918-9.464-7.653-20.538-15.865-32.531-23.333-18.278-11.379-40.197-21.99-62.736-25.216-23.404-3.345-48.273 1.306-68.529 21.41-21.014 20.861-24.232 47.194-19.441 71.272 4.639 23.317 16.961 46.388 29.954 65.849 13.19 19.756 28.151 37.373 39.671 49.938 5.332 5.816 9.99 10.618 13.485 14.127v67.397c0 6.345 2.824 12.36 7.706 16.413zM228.742 708.031l-0.035-0.033-0.213-0.202-0.934-0.893c-0.838-0.808-2.095-2.031-3.692-3.625-3.198-3.191-7.748-7.853-13.050-13.636-10.666-11.634-24.079-27.485-35.636-44.795-11.753-17.605-20.552-35.201-23.593-50.484-2.889-14.522-0.347-24.722 7.653-32.663 8.757-8.692 19.194-11.348 32.431-9.455 14.101 2.016 30.155 9.192 46.224 19.198 15.804 9.841 30.178 21.502 40.717 30.854 5.233 4.643 9.434 8.64 12.3 11.448 1.431 1.402 2.524 2.502 3.241 3.232l0.785 0.807 0.172 0.178c8.105 8.545 21.628 8.931 30.177 0.828 8.552-8.105 8.914-21.607 0.809-30.159l-15.484 14.675c15.484-14.675 15.488-14.671 15.484-14.675l-0.049-0.052-0.090-0.094-0.297-0.309-1.051-1.081c-0.899-0.916-2.191-2.217-3.837-3.829-3.288-3.221-8.006-7.706-13.84-12.884-2.447-2.171-5.105-4.477-7.951-6.874 3.574 1.987 7.756 2.97 12.137 2.603 11.741-0.986 20.459-11.304 19.473-23.044l-25.312-301.339 63.801-13.845c0.705 1.741 1.467 3.58 2.287 5.504 5.96 13.99 15.107 32.802 27.819 51.772 24.889 37.133 66.851 79.642 129.029 79.642 62.029 0 104.828-42.338 130.534-79.351 13.141-18.918 22.724-37.696 29.018-51.661 0.346-0.768 0.678-1.523 1.007-2.261l51.836 22.81c-0.384 7.642-1.041 18.052-2.167 30.357-2.466 26.965-7.151 62.613-15.945 98.001-8.875 35.699-21.538 69.478-39.1 93.884-17.207 23.919-37.683 37.129-63.45 37.129-34.705 0-61.495 0.474-82.321 2.069-20.599 1.574-37.116 4.348-50.411 9.839-28.203 11.653-37.171 34.006-46.255 56.646-0.546 1.359-1.092 2.72-1.643 4.079-8.823 21.791-39.668 65.506-83.28 106.877-36.217 34.356-78.555 64.505-120.518 79.031v-48.621c0-5.911-2.458-11.562-6.777-15.596zM719.539 530.509c23.091 0.508 46.946-13.709 69.982-47.757 7.019-8.849 15.825-16.119 25.852-21.333 10.227-5.316 21.487-8.371 32.998-8.947 9.165-0.457 18.321 0.661 27.076 3.29-20.634 12.779-35.891 31.646-48.154 46.959-1.054 1.31-2.082 2.603-3.098 3.87-9.869 12.361-18.005 22.549-26.773 30.251-9.079 7.979-16.798 11.392-25.037 11.426-14.541-0.202-28.821-3.875-41.655-10.712-3.908-2.082-7.65-4.438-11.191-7.045zM259.564 692.631c8.331-8.332 8.331-21.839 0-30.17l-12.8-12.8c-8.331-8.331-21.839-8.331-30.17 0s-8.331 21.839 0 30.17l12.8 12.8c8.332 8.331 21.839 8.331 30.17 0zM867.985 220.527c9.865-6.443 12.638-19.665 6.195-29.525l-17.86 11.665c17.86-11.665 17.869-11.652 17.86-11.665l-0.043-0.068-0.051-0.073-0.115-0.179-0.32-0.469c-0.252-0.358-0.576-0.819-0.981-1.37-0.811-1.101-1.933-2.564-3.401-4.335-2.94-3.546-7.253-8.324-13.188-13.909-11.883-11.187-30.187-25.532-56.789-39.676-53.282-28.326-139.055-55.403-271.932-55.403-132.888 0-224.931 26.863-284.349 54.464-29.667 13.786-51.071 27.695-65.269 38.391-7.096 5.346-12.385 9.886-16.002 13.197-1.808 1.66-3.197 3.008-4.186 3.998-0.494 0.495-0.888 0.9-1.184 1.212l-0.369 0.393-0.13 0.137-0.052 0.060c-0.010 0.009-0.042 0.043 15.7 14.443l-15.742-14.4c-7.952 8.695-7.35 22.191 1.344 30.14 8.668 7.927 22.106 7.356 30.068-1.263 0.009-0.009 0.024-0.026 0.045-0.047l0.533-0.546c0.545-0.546 1.472-1.451 2.796-2.662 2.649-2.428 6.89-6.089 12.854-10.581 11.921-8.986 30.758-21.316 57.571-33.775 53.542-24.875 139.419-50.492 266.372-50.492 126.963 0 205.67 25.83 251.904 50.411 23.159 12.309 38.379 24.414 47.573 33.071 4.608 4.335 7.723 7.821 9.579 10.065 0.93 1.118 1.545 1.929 1.873 2.381l0.277 0.384-0.043-0.064zM867.985 220.527c-9.805 6.404-22.933 3.695-29.419-6.029z" />
<glyph unicode="&#xe906;" glyph-name="truck" d="M580.267 795.733h-409.6c-14.138 0-25.6 11.462-25.6 25.6s11.462 25.6 25.6 25.6h409.6c47.128 0 85.333-38.205 85.333-85.333v-605.867h-558.933c-14.138 0-25.6 11.462-25.6 25.6s11.462 25.6 25.6 25.6h507.733v554.667c0 18.851-15.281 34.133-34.133 34.133zM791.985 695.733h-117.852c-4.714 0-8.533-3.821-8.533-8.533v-480.267h238.933c4.714 0 8.533 3.82 8.533 8.533v285.891c0 8.154-2.335 16.135-6.731 22.999l-107.162 167.444c-1.567 2.451-4.277 3.933-7.188 3.933zM674.133 746.933h117.852c20.371 0 39.332-10.378 50.313-27.534l107.162-167.443c9.67-15.104 14.807-32.662 14.807-50.599v-285.891c0-32.99-26.743-59.733-59.733-59.733h-290.133v531.467c0 32.99 26.743 59.733 59.733 59.733zM640 548.267h298.667v-51.2h-298.667v51.2zM800 155.733c-15.316 0-27.733-12.418-27.733-27.733s12.418-27.733 27.733-27.733c15.316 0 27.733 12.418 27.733 27.733s-12.418 27.733-27.733 27.733zM721.067 128c0 43.595 35.338 78.933 78.933 78.933s78.933-35.338 78.933-78.933c0-43.595-35.338-78.933-78.933-78.933s-78.933 35.338-78.933 78.933zM224 155.733c-15.317 0-27.733-12.418-27.733-27.733s12.417-27.733 27.733-27.733c15.317 0 27.733 12.418 27.733 27.733s-12.417 27.733-27.733 27.733zM145.067 128c0 43.595 35.34 78.933 78.933 78.933s78.933-35.338 78.933-78.933c0-43.595-35.34-78.933-78.933-78.933s-78.933 35.338-78.933 78.933zM81.079 672c0 14.138 11.461 25.6 25.6 25.6h319.998c14.141 0 25.6-11.462 25.6-25.6s-11.459-25.6-25.6-25.6h-319.998c-14.139 0-25.6 11.462-25.6 25.6zM17.067 501.333c0 14.138 11.461 25.6 25.6 25.6h277.333c14.138 0 25.601-11.462 25.601-25.6s-11.462-25.6-25.601-25.6h-277.333c-14.139 0-25.6 11.462-25.6 25.6zM38.413 330.667c0 14.138 11.461 25.6 25.6 25.6h324.254c14.138 0 25.6-11.462 25.6-25.6s-11.462-25.6-25.6-25.6h-324.254c-14.139 0-25.6 11.462-25.6 25.6z" />
<glyph unicode="&#xe907;" glyph-name="user" d="M222.061 259.323c-47.933-30.096-69.84-65.825-69.84-96.219 0-14.504 4.735-25.144 13.591-34.337 9.685-10.054 25.566-19.544 49.102-27.434 47.424-15.895 115.319-21.89 192.916-21.89 77.96 0 145.805 6.214 193.067 22.286 23.45 7.973 39.266 17.538 48.915 27.653 8.848 9.272 13.582 20.005 13.582 34.574 0 30.236-21.942 65.759-70.028 95.707-46.997 29.272-113.105 48.929-185.536 48.929-72.817 0-138.894-19.842-185.768-49.268zM184.937 318.45c59.004 37.046 138.184 59.96 222.893 59.96 84.244 0 163.371-22.691 222.442-59.48 57.982-36.11 102.94-90.359 102.94-154.973 0-32.852-11.883-60.756-32.884-82.772-20.201-21.169-47.467-35.533-76.949-45.554-58.591-19.931-135.987-26.005-215.549-26.005-79.075 0-156.439 5.846-215.106 25.512-29.51 9.891-56.882 24.111-77.189 45.186-21.136 21.937-33.132 49.841-33.132 82.781 0 64.498 44.589 118.966 102.533 155.345zM186.723 665.095c0.035 122.076 99.022 221.041 221.106 221.041 122.105 0 221.107-99 221.107-221.107s-99.002-221.107-221.107-221.107h-1.439c-121.703 0.405-220.088 99.429-219.667 221.173zM186.723 665.095c0 0.022 0 0.043 0 0.065l34.909-0.131h-34.909c0 0.022 0 0.044 0 0.066zM407.829 816.318c-83.547 0-151.288-67.741-151.288-151.289v-0.131c-0.312-83.178 66.891-150.85 150.025-151.157h1.263c83.546 0 151.289 67.741 151.289 151.288s-67.742 151.289-151.289 151.289zM674.672 809.911c3.873 18.887 22.319 31.060 41.207 27.19 79.825-16.359 139.911-86.964 139.86-171.649v0.022c0-0.007 0-0.015 0-0.022-0.009-81.151-55.152-149.24-129.876-169.213-18.623-4.979-37.758 6.085-42.738 24.711s6.083 37.761 24.711 42.739c44.991 12.025 78.085 53.067 78.085 101.784v0.022c0.033 50.824-36.054 93.371-84.056 103.209-18.888 3.871-31.060 22.32-27.192 41.207zM710.083 377.456c0 19.279 15.63 34.909 34.909 34.909 50.064 0 96.493-16.882 130.918-41.812 33.145-23.999 61.263-60.379 61.263-101.939 0-49.031-38.768-92.216-89.865-104.215-18.767-4.408-37.558 7.233-41.965 26.005-4.403 18.767 7.238 37.558 26.005 41.965 24.851 5.832 36.008 24.771 36.008 36.245 0 9.765-8.108 27.806-32.396 45.396-23.003 16.659-55.208 28.537-89.968 28.537-19.279 0-34.909 15.63-34.909 34.909z" />
<glyph unicode="&#xe908;" glyph-name="user-2" d="M229.351 254.901c-50.103-31.648-73.605-69.543-73.605-102.202 0-15.63 5.139-27.211 14.712-37.147 10.383-10.779 27.227-20.784 51.852-29.041 49.596-16.633 120.399-22.859 201.042-22.859 81.026 0 151.794 6.455 201.236 23.276 24.542 8.349 41.322 18.435 51.668 29.28 9.564 10.022 14.701 21.699 14.701 37.386 0 32.498-23.559 70.178-73.834 101.67-49.196 30.819-118.245 51.504-193.772 51.504-75.936 0-144.942-20.876-194.002-51.866zM192.893 312.617c60.903 38.472 142.767 62.416 230.459 62.416 87.204 0 169.025-23.712 230.011-61.914 59.914-37.533 105.861-93.508 105.861-159.526 0-33.57-12.128-62.034-33.577-84.511-20.661-21.654-48.633-36.431-79.073-46.787-60.522-20.586-140.626-26.911-223.222-26.911-82.091 0-162.156 6.083-222.747 26.402-30.468 10.216-58.547 24.846-79.313 46.404-21.577 22.398-33.813 50.855-33.813 84.507 0 65.901 45.554 122.105 105.414 159.918zM195.81 674.92c0.033 125.665 101.921 227.48 227.543 227.48 125.641 0 227.54-101.848 227.54-227.541 0-125.647-101.895-227.541-227.54-227.541h-1.488c-125.237 0.451-226.473 102.362-226.054 227.603zM423.352 834.133c-87.95 0-159.276-71.294-159.276-159.275v-0.123c-0.316-87.536 70.44-158.807 157.983-159.151h1.294c87.941 0 159.273 71.332 159.273 159.275 0 87.981-71.325 159.275-159.273 159.275zM816.271 647.3c18.852 0 34.133-15.282 34.133-34.132v-171.093c0-18.852-15.281-34.133-34.133-34.133s-34.133 15.281-34.133 34.133v171.093c0 18.85 15.281 34.132 34.133 34.132zM694.938 527.616c0 18.852 15.281 34.133 34.133 34.133h174.507c18.852 0 34.133-15.281 34.133-34.133s-15.281-34.133-34.133-34.133h-174.507c-18.852 0-34.133 15.281-34.133 34.133z" />
<glyph unicode="&#xe909;" glyph-name="Video" d="M827.056 601.827c-36.542-19.040-80.83-48.472-118.845-78.606-13.294-10.541-32.616-8.307-43.155 4.989-10.541 13.296-8.307 32.618 4.989 43.158 40.411 32.037 87.958 63.76 128.621 84.947 20.132 10.49 39.995 19.151 57.194 23.585 8.526 2.198 18.043 3.799 27.435 3.238 9.3-0.557 22.065-3.525 31.934-14.174 5.751-6.191 9.355-13.537 11.725-19.415 2.542-6.304 4.602-13.326 6.322-20.548 3.443-14.451 6.085-32.072 8.098-51.231 4.045-38.459 5.855-86.010 5.673-132.993-0.18-46.995-2.355-94.286-6.484-132.258-2.056-18.911-4.669-36.196-7.961-50.246-1.642-7.010-3.592-13.826-5.984-19.913-2.169-5.521-5.628-12.904-11.387-19.094-10.244-11.076-23.622-13.429-32.373-13.683-9.128-0.268-18.412 1.518-26.718 3.815-16.826 4.653-36.499 13.38-56.615 23.91-40.618 21.271-88.486 52.812-129.284 84.613-13.38 10.43-15.772 29.733-5.341 43.114s29.733 15.774 43.114 5.343c38.441-29.966 83.22-59.376 120.011-78.641 18.246-9.552 33.245-15.929 43.891-18.954 0.283 1.081 0.571 2.247 0.866 3.502 2.49 10.633 4.776 25.176 6.701 42.873 3.834 35.248 5.949 80.3 6.126 125.852 0.174 45.562-1.597 90.761-5.337 126.333-1.878 17.857-4.18 32.573-6.762 43.414-0.524 2.2-1.038 4.141-1.53 5.843-0.254-0.063-0.516-0.129-0.782-0.199-10.586-2.728-25.668-8.95-44.141-18.575zM868.639 263.041c0 0 0.008 0.016 0.027 0.047-0.016-0.033-0.027-0.047-0.027-0.047zM193.438 655.503c-36.922-37.040-55.438-99.99-55.438-209.078 0-109.066 18.516-172.020 55.44-209.064 36.895-37.018 99.576-55.591 208.282-55.591 108.681 0 171.354 18.573 208.243 55.589 36.921 37.046 55.437 100 55.437 209.066 0 109.089-18.518 172.038-55.435 209.078-36.889 37.011-99.559 55.577-208.245 55.577-108.708 0-171.389-18.565-208.283-55.577zM149.924 698.878c55.115 55.292 139.653 73.642 251.797 73.642 112.124 0 196.653-18.352 251.761-73.644 55.081-55.261 73.359-139.997 73.359-252.451 0-112.435-18.28-197.169-73.357-252.436-55.108-55.296-139.637-73.658-251.763-73.658-112.146 0-196.686 18.362-251.798 73.658-55.084 55.265-73.363 140.001-73.363 252.436 0 112.454 18.278 197.19 73.364 252.453z" />
<glyph unicode="&#xe90a;" glyph-name="Wallet" d="M737.469 526.986c-46.244 0-83.748-37.501-83.748-83.748 0-46.292 37.509-83.789 83.748-83.789h165.832c14.139 0 25.6-11.461 25.6-25.6s-11.461-25.6-25.6-25.6h-165.832c-74.527 0-134.948 60.434-134.948 134.989 0 74.522 60.426 134.948 134.948 134.948h164.531c14.139 0 25.6-11.461 25.6-25.6 0-14.136-11.461-25.6-25.6-25.6h-164.531zM717.86 445.737c0 14.139 11.461 25.6 25.6 25.6h12.677c14.139 0 25.6-11.461 25.6-25.6s-11.461-25.6-25.6-25.6h-12.677c-14.139 0-25.6 11.461-25.6 25.6zM298.931 612.536c0 14.139 11.461 25.6 25.6 25.6h173.228c14.139 0 25.6-11.461 25.6-25.6 0-14.136-11.461-25.6-25.6-25.6h-173.228c-14.139 0-25.6 11.464-25.6 25.6zM219.914 702.989c-53.78-49.375-78.514-130.993-78.514-265.784 0-134.769 24.733-216.389 78.515-265.769 54.44-49.984 144.962-72.963 292.725-72.963 147.743 0 238.257 22.979 292.69 72.96 53.778 49.382 78.51 131.003 78.51 265.772 0 134.792-24.735 216.412-78.51 265.787-54.433 49.977-144.945 72.946-292.69 72.946-147.763 0-238.287-22.969-292.726-72.949zM185.288 740.705c69.569 63.87 177.466 86.432 327.352 86.432 149.868 0 257.754-22.562 327.319-86.433 70.221-64.475 95.081-165.022 95.081-303.5 0-138.46-24.86-239.004-95.081-303.483-69.563-63.877-177.449-86.449-327.319-86.449-149.888 0-257.784 22.572-327.353 86.449-70.226 64.479-95.087 165.023-95.087 303.483 0 138.478 24.861 239.027 95.088 303.501z" />
<glyph unicode="&#xe90b;" glyph-name="arrow-down" d="M500.297 789.333c-17.673 0-32-14.327-32-32v-640c0-17.673 14.327-32 32-32s32 14.327 32 32v640c0 17.673-14.327 32-32 32zM228.069 403.644c-15.557-8.388-21.371-27.797-12.986-43.354l28.169 15.181c-28.169-15.181-28.172-15.172-28.169-15.181l0.047-0.085 0.097-0.179 0.346-0.636 1.282-2.33c1.112-2.005 2.733-4.902 4.825-8.559 4.181-7.313 10.252-17.698 17.897-30.127 15.254-24.798 36.956-58.044 62.586-91.447 25.485-33.216 55.641-67.631 87.953-94.033 31.553-25.783 69.545-47.556 110.116-47.556 40.585 0 78.596 21.764 110.17 47.552 32.329 26.402 62.498 60.817 87.996 94.033 25.638 33.404 47.351 66.645 62.609 91.447 7.65 12.429 13.722 22.814 17.903 30.127 2.095 3.661 3.716 6.554 4.83 8.559l1.28 2.33 0.346 0.636 0.098 0.179 0.030 0.055c0.004 0.004 0.017 0.030-28.151 15.215l28.151-15.215c8.388 15.556 2.594 34.995-12.962 43.383s-34.961 2.577-43.349-12.971c-0.004-0.004 0 0 0 0l-0.064-0.115-0.256-0.474-1.097-1.988c-0.986-1.775-2.47-4.429-4.412-7.825-3.891-6.801-9.613-16.589-16.853-28.356-14.524-23.603-34.978-54.891-58.871-86.020-24.043-31.317-50.778-61.436-77.713-83.43-27.691-22.618-51.302-33.122-69.683-33.122-18.351 0-41.941 10.496-69.619 33.114-26.921 21.999-53.644 52.117-77.675 83.435-23.884 31.13-44.332 62.417-58.849 86.020-7.239 11.767-12.959 21.555-16.847 28.356-1.943 3.401-3.427 6.050-4.41 7.825l-1.096 1.988-0.257 0.474-0.055 0.098c-0.001 0.004 0.001 0 0 0zM228.069 403.644c15.555 8.384 34.968 2.556 43.356-12.996z" />
<glyph unicode="&#xe90c;" glyph-name="arrow-left" d="M686.366 134.514c-8.439-13.409-26.489-17.643-40.315-9.459l15.282 24.278c-15.282-24.278-15.275-24.282-15.282-24.278l-0.028 0.017-0.95 0.567c-0.609 0.364-1.49 0.893-2.628 1.583-2.276 1.379-5.579 3.396-9.762 5.994-8.365 5.196-20.262 12.724-34.516 22.132-28.462 18.785-66.554 45.213-104.774 75.636-38.055 30.291-77.107 65.227-106.9 101.099-28.945 34.85-53.155 75.275-53.155 115.917 0 40.634 24.212 81.053 53.155 115.902 29.793 35.868 68.845 70.804 106.9 101.099 38.22 30.424 76.311 56.857 104.772 75.643 14.254 9.411 26.152 16.942 34.514 22.137 4.183 2.6 7.487 4.616 9.764 5.996 1.138 0.688 2.020 1.219 2.626 1.582l0.969 0.579c0.006 0.004 0.011 0.007 15.296-24.271l-15.296 24.271c13.826 8.187 31.886 3.96 40.327-9.448s4.079-30.91-9.743-39.098l-0.737-0.44c-0.523-0.313-1.318-0.791-2.368-1.426-2.097-1.271-5.211-3.173-9.195-5.647-7.968-4.951-19.405-12.189-33.151-21.263-27.538-18.178-64.114-43.573-100.561-72.588-36.612-29.146-72.228-61.262-98.435-92.814-27.056-32.573-40.177-59.938-40.177-80.213 0-20.287 13.124-47.658 40.177-80.23 26.207-31.554 61.821-63.668 98.433-92.812 36.447-29.011 73.023-54.401 100.561-72.577 13.746-9.072 25.181-16.308 33.151-21.257 3.984-2.475 7.096-4.377 9.195-5.647 1.049-0.635 1.845-1.113 2.367-1.426l0.734-0.438c0.002 0 0 0.002 0 0 13.824-8.184 18.191-25.691 9.753-39.098z" />
<glyph unicode="&#xe90d;" glyph-name="arrow-right" d="M337.634 134.514c8.439-13.409 26.489-17.643 40.315-9.459l-15.282 24.278c15.282-24.278 15.275-24.282 15.282-24.278l0.028 0.017 0.95 0.567c0.609 0.364 1.49 0.893 2.628 1.583 2.276 1.379 5.579 3.396 9.762 5.994 8.365 5.196 20.262 12.724 34.516 22.132 28.462 18.785 66.554 45.213 104.774 75.636 38.055 30.291 77.107 65.227 106.9 101.099 28.945 34.85 53.155 75.275 53.155 115.917 0 40.634-24.212 81.053-53.155 115.902-29.793 35.868-68.845 70.804-106.9 101.099-38.22 30.424-76.311 56.857-104.772 75.643-14.254 9.411-26.152 16.942-34.514 22.137-4.183 2.6-7.487 4.616-9.764 5.996-1.138 0.688-2.020 1.219-2.626 1.582l-0.969 0.579c-0.006 0.004-0.011 0.007-15.296-24.271l15.296 24.271c-13.826 8.187-31.886 3.96-40.327-9.448s-4.079-30.91 9.743-39.098l0.737-0.44c0.523-0.313 1.318-0.791 2.368-1.426 2.097-1.271 5.211-3.173 9.195-5.647 7.968-4.951 19.405-12.189 33.151-21.263 27.538-18.178 64.114-43.573 100.561-72.588 36.612-29.146 72.228-61.262 98.435-92.814 27.056-32.573 40.177-59.938 40.177-80.213 0-20.287-13.124-47.658-40.177-80.23-26.207-31.554-61.821-63.668-98.433-92.812-36.447-29.011-73.023-54.401-100.561-72.577-13.746-9.072-25.181-16.308-33.151-21.257-3.984-2.475-7.096-4.377-9.195-5.647-1.049-0.635-1.845-1.113-2.367-1.426l-0.734-0.438c-0.002 0 0 0.002 0 0-13.824-8.184-18.191-25.691-9.753-39.098z" />
<glyph unicode="&#xe90e;" glyph-name="arrow-up" d="M500.297 106.667c-17.673 0-32 14.327-32 32v640c0 17.673 14.327 32 32 32s32-14.327 32-32v-640c0-17.673-14.327-32-32-32zM228.069 492.356c-15.557 8.388-21.371 27.797-12.986 43.354l28.169-15.181c-28.169 15.181-28.172 15.174-28.169 15.181l0.047 0.086 0.097 0.18 0.346 0.634 1.282 2.327c1.112 2.006 2.733 4.902 4.825 8.561 4.181 7.315 10.252 17.696 17.897 30.127 15.254 24.8 36.956 58.043 62.586 91.447 25.485 33.215 55.641 67.631 87.953 94.033 31.553 25.783 69.545 47.554 110.116 47.554 40.585 0 78.596-21.764 110.17-47.549 32.329-26.403 62.498-60.818 87.996-94.033 25.638-33.405 47.351-66.649 62.609-91.448 7.65-12.431 13.722-22.813 17.903-30.127 2.095-3.659 3.716-6.555 4.83-8.561l1.28-2.327 0.474-0.869c0.004-0.007 0.017-0.032-28.151-15.216l28.151 15.216c8.388-15.558 2.594-34.996-12.962-43.385s-34.961-2.577-43.349 12.971c-0.004 0.004 0 0 0 0l-0.064 0.115-0.256 0.474-1.097 1.988c-0.986 1.775-2.47 4.429-4.412 7.825-3.891 6.801-9.613 16.589-16.853 28.357-14.524 23.6-34.978 54.89-58.871 86.019-24.043 31.318-50.778 61.436-77.713 83.433-27.691 22.615-51.302 33.118-69.683 33.118-18.351 0-41.941-10.496-69.619-33.113-26.921-21.997-53.644-52.114-77.675-83.433-23.884-31.129-44.332-62.419-58.849-86.019-7.239-11.769-12.959-21.556-16.847-28.358-1.943-3.401-3.427-6.050-4.41-7.825l-1.096-1.988-0.257-0.474-0.055-0.098c-0.001-0.004 0.001 0 0 0zM228.069 492.356c15.555-8.384 34.968-2.556 43.356 12.996z" />
<glyph unicode="&#xe90f;" glyph-name="Award" d="M598.409 788.183c73.414-16.678 129.963-71.971 146.876-141.807 13.22-54.583 13.22-111.374 0-165.957-10.677-44.090-37.154-82.381-73.697-108.82l-1.079-0.771c-19.125-13.636-40.95-24.050-64.662-30.379-2.458-0.655-4.936-1.27-7.438-1.836-56.829-12.913-115.988-12.909-172.817 0-2.297 0.522-4.574 1.079-6.833 1.676-23.945 6.315-45.981 16.787-65.266 30.539l-1.079 0.771c-36.545 26.44-63.020 64.73-73.698 108.82-13.219 54.583-13.219 111.374 0 165.957 16.914 69.835 73.463 125.128 146.877 141.806 56.829 12.911 115.988 12.911 172.817 0zM728.883 329.926c40.383 34.669 69.857 81.193 82.749 134.424 15.78 65.143 15.78 132.953 0 198.096-23.238 95.947-100.342 170.099-198.1 192.308-66.785 15.173-136.281 15.173-203.066 0-97.759-22.209-174.863-96.36-198.101-192.308-15.777-65.143-15.777-132.953 0-198.096 12.893-53.231 42.366-99.755 82.749-134.42l-43.455-170.766c-22.513-88.47 71.305-156.245 149.928-118.487l82.466 39.605c17.575 8.441 38.315 8.441 55.89 0l82.466-39.605c78.623-37.758 172.442 30.017 149.927 118.487l-43.455 170.762zM622.636 274.275c15.892 4.192 31.191 9.762 45.749 16.582l37.796-148.528c6.871-27.003-22.832-55.187-54.217-40.113l-82.466 39.605c-36.256 17.411-78.739 17.411-114.999 0l-82.463-39.605c-31.387-15.073-61.088 13.111-54.217 40.113l37.796 148.528c12.769-5.98 26.105-11.001 39.912-14.974 4.922-1.413 9.902-2.697 14.94-3.84 66.785-15.172 136.281-15.172 203.066 0 3.055 0.693 6.089 1.44 9.103 2.232z" />
<glyph unicode="&#xe910;" glyph-name="Bookmark" d="M332.477 566.708c0 17.673 14.327 32 32 32h292.479c17.673 0 32-14.327 32-32s-14.327-32-32-32h-292.479c-17.673 0-32 14.327-32 32zM339.575 873.472c46.056 9.425 102.831 11.861 171.153 11.861 68.326 0 125.103-2.435 171.157-11.861 46.635-9.544 85.069-26.799 113.946-58.432 28.535-31.26 44.412-72.957 53.513-124.657 9.084-51.608 11.934-116.404 11.934-196.687 0-30.985 0.055-60.075 0.102-87.364 0.235-129.054 0.397-217.775-5.423-275.639-3.473-34.526-9.459-63.829-22.622-84.877-7.078-11.319-16.482-20.698-28.689-26.944-11.989-6.135-24.649-8.205-36.766-8.205-27.678 0-54.519 15.228-76.186 30.281-21.15 14.694-43.413 33.724-64.469 51.716-1.668 1.425-3.328 2.846-4.983 4.258-23.249 19.844-45.086 38.165-65.579 51.618-21.257 13.956-36.198 19.311-45.935 19.311-9.732 0-24.674-5.355-45.931-19.311-20.493-13.453-42.33-31.774-65.58-51.618-1.653-1.412-3.314-2.833-4.983-4.258-21.054-17.993-43.318-37.022-64.468-51.716-21.665-15.053-48.506-30.281-76.187-30.281-12.116 0-24.775 2.069-36.764 8.205-12.208 6.246-21.609 15.625-28.689 26.944-13.164 21.047-19.15 50.351-22.622 84.877-5.818 57.865-5.658 146.586-5.425 275.639 0.049 27.29 0.102 56.38 0.102 87.364 0 80.283 2.852 145.079 11.936 196.687 9.101 51.7 24.977 93.397 53.513 124.657 28.876 31.633 67.311 48.888 113.946 58.432zM235.148 679.288c-8.064-45.812-10.967-105.939-10.967-185.592 0-31.74-0.050-61.303-0.097-88.832-0.219-129.097-0.362-213.461 5.099-267.767 3.366-33.472 8.472-49.779 13.204-57.348 1.869-2.987 3.116-3.665 3.576-3.9 0.678-0.35 2.707-1.182 7.615-1.182 6.345 0 18.918 4.42 39.668 18.837 18.395 12.783 38.295 29.781 60.143 48.439 1.417 1.212 2.843 2.432 4.277 3.652 22.788 19.452 47.607 40.427 72.003 56.444 23.637 15.518 51.819 29.811 81.058 29.811 29.244 0 57.425-14.293 81.062-29.811 24.397-16.017 49.216-36.992 72.004-56.444 1.434-1.22 2.859-2.441 4.275-3.648 21.85-18.662 41.749-35.661 60.143-48.444 20.753-14.417 33.323-18.837 39.667-18.837 4.911 0 6.938 0.832 7.616 1.182 0.461 0.235 1.707 0.913 3.575 3.9 4.732 7.569 9.839 23.876 13.205 57.348 5.461 54.306 5.321 138.671 5.099 267.772-0.047 27.529-0.098 57.088-0.098 88.828 0 79.653-2.901 139.78-10.965 185.592-8.047 45.719-20.71 73.94-37.747 92.605-16.7 18.292-40.87 30.971-79.509 38.879-39.223 8.026-90.394 10.562-158.327 10.562-67.93 0-119.101-2.535-158.321-10.562-38.641-7.908-62.811-20.587-79.509-38.879-17.038-18.665-29.702-46.886-37.75-92.605z" />
<glyph unicode="&#xe911;" glyph-name="briefcase" d="M510.343 402.32c19.279 0 34.909-15.63 34.909-34.909v-112.128c0-19.284-15.63-34.909-34.909-34.909-19.284 0-34.909 15.625-34.909 34.909v112.128c0 19.279 15.625 34.909 34.909 34.909zM92.257 490.31c11.056 15.796 32.823 19.638 48.618 8.581l0.431-0.302c97.126-59.605 226.375-96.385 368.842-96.385 142.364 0 271.9 36.729 369.036 96.243l0.163 0.119c15.616 11.308 37.441 7.816 48.747-7.801 11.311-15.616 7.82-37.441-7.796-48.747l-1.238-0.898c-0.703-0.507-1.424-0.991-2.164-1.448-109.424-67.407-252.346-107.287-406.747-107.287-154.419 0-296.957 39.889-406.327 107.292-0.579 0.358-1.147 0.731-1.704 1.122l-1.28 0.894c-15.794 11.059-19.636 32.824-8.579 48.617zM226.531 637.729c-49.899-44.438-74.281-118.867-74.281-247.361 0-128.489 24.382-202.92 74.281-247.357 51.127-45.535 137.74-67.728 283.812-67.728 146.097 0 232.709 22.193 283.83 67.724 49.892 44.442 74.263 118.868 74.263 247.361 0 128.498-24.371 202.925-74.263 247.362-51.121 45.531-137.733 67.725-283.83 67.725-146.072 0-232.684-22.193-283.812-67.726zM180.097 689.868c71.689 63.844 181.578 85.405 330.246 85.405 148.689 0 258.579-21.561 330.263-85.406 72.913-64.939 97.648-165.509 97.648-299.5 0-133.986-24.734-234.557-97.648-299.497-71.685-63.846-181.574-85.406-330.263-85.406-148.668 0-258.557 21.56-330.246 85.406-72.917 64.936-97.665 165.506-97.665 299.497 0 133.995 24.749 234.563 97.665 299.5zM336.239 757.791c0 69.664 51.646 132.573 122.802 132.573h102.614c71.154 0 122.801-62.909 122.801-132.573v-26.88c0-19.28-15.63-34.909-34.909-34.909s-34.909 15.629-34.909 34.909v26.88c0 38.197-27.117 62.755-52.983 62.755h-102.614c-25.868 0-52.984-24.558-52.984-62.755v-26.88c0-19.28-15.629-34.909-34.909-34.909s-34.909 15.629-34.909 34.909v26.88z" />
<glyph unicode="&#xe912;" glyph-name="Calendar" d="M234.060 693.891c-49.175-49.171-74.067-132.94-74.067-278.971 0-146.029 24.892-229.798 74.067-278.967 49.176-49.175 132.946-74.058 278.957-74.058 146.035 0 229.815 24.883 278.996 74.058 49.18 49.169 74.069 132.938 74.069 278.967s-24.889 229.799-74.069 278.969c-49.18 49.172-132.961 74.055-278.996 74.055-146.010 0-229.781-24.882-278.957-74.053zM173.723 754.233c74.482 74.477 188.558 99.045 339.294 99.045 150.757 0 264.842-24.568 339.332-99.044s99.066-188.554 99.066-339.314c0-150.757-24.576-264.836-99.066-339.315-74.49-74.473-188.575-99.044-339.332-99.044-150.736 0-264.812 24.57-339.294 99.044-74.483 74.479-99.063 188.558-99.063 339.315 0 150.76 24.58 264.835 99.063 339.313zM86.41 562.167c0 23.564 19.103 42.667 42.667 42.667h768.34c23.563 0 42.667-19.103 42.667-42.667s-19.103-42.667-42.667-42.667h-768.34c-23.564 0-42.667 19.102-42.667 42.667zM658.284 394.194c0 23.564 19.103 42.667 42.667 42.667h0.387c23.563 0 42.667-19.103 42.667-42.667s-19.103-42.667-42.667-42.667h-0.387c-23.563 0-42.667 19.103-42.667 42.667zM470.576 394.194c0 23.564 19.103 42.667 42.667 42.667h0.384c23.564 0 42.667-19.103 42.667-42.667s-19.103-42.667-42.667-42.667h-0.384c-23.564 0-42.667 19.103-42.667 42.667zM282.514 394.194c0 23.564 19.103 42.667 42.667 42.667h0.384c23.565 0 42.667-19.103 42.667-42.667s-19.102-42.667-42.667-42.667h-0.384c-23.564 0-42.667 19.103-42.667 42.667zM658.284 229.831c0 23.569 19.103 42.667 42.667 42.667h0.387c23.563 0 42.667-19.098 42.667-42.667 0-23.563-19.103-42.667-42.667-42.667h-0.387c-23.563 0-42.667 19.103-42.667 42.667zM470.576 229.831c0 23.569 19.103 42.667 42.667 42.667h0.384c23.564 0 42.667-19.098 42.667-42.667 0-23.563-19.103-42.667-42.667-42.667h-0.384c-23.564 0-42.667 19.103-42.667 42.667zM282.514 229.831c0 23.569 19.103 42.667 42.667 42.667h0.384c23.565 0 42.667-19.098 42.667-42.667 0-23.563-19.102-42.667-42.667-42.667h-0.384c-23.564 0-42.667 19.103-42.667 42.667zM684.078 915.194c23.563 0 42.667-19.102 42.667-42.667v-139.179c0-23.564-19.103-42.667-42.667-42.667s-42.667 19.103-42.667 42.667v139.179c0 23.565 19.103 42.667 42.667 42.667zM342.389 915.194c23.565 0 42.667-19.102 42.667-42.667v-139.179c0-23.564-19.102-42.667-42.667-42.667s-42.667 19.103-42.667 42.667v139.179c0 23.565 19.103 42.667 42.667 42.667z" />
<glyph unicode="&#xe913;" glyph-name="Calling" d="M580.57 846.196c1.95 17.565 17.771 30.223 35.337 28.273 172.77-19.186 309.261-155.495 328.683-328.262 1.975-17.562-10.662-33.4-28.224-35.375-17.566-1.971-33.404 10.662-35.375 28.227-16.081 143.052-129.101 255.916-272.149 271.802-17.566 1.95-30.225 17.771-28.271 35.336zM580.962 697.596c3.371 17.349 20.169 28.681 37.517 25.311 88.384-17.168 157.431-86.283 174.639-174.627 3.379-17.348-7.945-34.15-25.289-37.53-17.348-3.379-34.15 7.945-37.53 25.292-12.228 62.781-61.282 111.852-124.028 124.039-17.348 3.37-28.681 20.166-25.31 37.515zM134.945 721.345c0 0 0.024 0.026 0.192 0.276 1.085 1.621 6.487 9.696 15.659 20.483 10.344 12.166 24.319 26.382 40.491 37.746 16.291 11.447 33.059 18.776 49.408 19.974 10.815 0.792 22.909-0.969 36.268-7.951 4.939-2.581 10.052-5.877 15.337-10.021 0.677-0.531 1.357-1.076 2.040-1.635 64.246-52.916 86.156-86.246 92.473-107.511 3.046-10.252 2.908-18.953 0.267-28.614l42.884-62.333c1.088 2.272 2.227 4.628 3.418 7.082l0.768 1.583c11.618 24.014 26.901 57.123 14.012 100.508-12.006 40.429-46.748 84.014-113.169 138.716l-0.063 0.051c-32.214 26.394-66.082 36.359-98.91 33.955-31.813-2.33-59.599-16.027-81.53-31.438-40.080-28.163-67.469-66.922-74.051-77.373-21.248-30.293-40.153-84.883-15.292-168.963 24.603-83.206 91.859-194.993 240.781-343.933 148.945-148.937 260.745-216.201 343.966-240.806 84.083-24.853 138.692-5.948 168.994 15.33 10.569 6.652 49.233 34.018 77.333 74.014 15.407 21.931 29.103 49.719 31.433 81.536 2.402 32.832-7.561 66.705-33.954 98.927l-0.055 0.073c-54.703 66.406-98.291 101.137-138.718 113.135-43.383 12.881-76.489-2.406-100.493-14.029l-1.574-0.764c-24.188-11.716-38.793-18.79-58.752-16.29-2.428 0.303-5.022 0.768-7.791 1.434-21.001 5.069-52.19 21.833-99.076 68.71-53.060 53.069-67.536 86.020-70.145 106.867-0.707 5.646-0.647 10.866 0.067 15.995l-40.887 71.681c-0.661-1.362-1.35-2.765-2.059-4.21-10.537-21.462-25.553-52.048-20.626-91.415 5.245-41.916 31.717-87.488 88.401-144.179 56.691-56.678 102.255-83.145 144.171-88.388 3.665-0.461 7.253-0.747 10.769-0.879 11.708-0.439 22.571 0.819 32.572 3.051 19.221 4.292 35.268 12.173 48.068 18.462 1.638 0.802 3.217 1.579 4.749 2.321 22.724 10.999 36.083 15.718 54.391 10.283 21.261-6.31 54.588-28.211 107.503-92.442 16.73-20.437 20.732-38.336 19.61-53.67-1.195-16.354-8.525-33.126-19.968-49.417-11.362-16.171-25.574-30.14-37.734-40.478-10.675-9.075-18.667-14.434-20.369-15.573-0.282-0.192-0.393-0.265-0.307-0.218-0.977-0.55-1.924-1.152-2.837-1.805l-0.038-0.030c-1.254-0.896-2.692-1.86-4.331-2.85-15.735-9.536-49.57-21.73-110.199-3.806-68.646 20.292-171.443 79.275-316.857 224.687-145.392 145.408-204.369 248.191-224.663 316.824-19.787 66.918-2.885 101.19 6.636 114.519 0.644 0.902 1.241 1.837 1.789 2.801zM387.081 644.092c-2.077-7.597-5.7-15.787-10.542-25.791l-0.263-0.542 40.887-71.681c1.553 11.159 6.205 21.892 12.802 35.681l-42.884 62.333z" />
<glyph unicode="&#xe914;" glyph-name="cart" d="M117.689 815.391c2.612 17.479 18.898 29.532 36.377 26.921l-4.728-31.649c4.728 31.649 4.743 31.647 4.757 31.644l0.1-0.015 0.163-0.025 0.425-0.068 1.235-0.213c0.988-0.178 2.304-0.432 3.9-0.776 3.184-0.687 7.535-1.745 12.665-3.305 10.139-3.084 23.962-8.323 37.99-16.986 28.7-17.724 59.121-50.835 57.984-105.949 0.080-3.428 0.128-6.887 0.147-10.374 159.665 44.172 333.194 54.504 414.666 52.725 46.775-1.021 83.785-9.922 113.498-28.492 29.948-18.715 49.054-45.113 63.757-74.523 25.173-50.341 33.229-131.806 26.543-206.763-3.409-38.212-10.79-76.604-22.788-110.562-11.857-33.549-29.073-65.203-53.717-87.228-25.54-22.835-66.441-37.414-109.534-46.711-44.454-9.583-96.491-14.609-148.885-15.027-52.425-0.418-106.189 3.763-154.129 13.073-47.235 9.173-91.834 23.885-123.54 46.455l-0.007 0.004c-69.664 49.613-82.121 138.863-81.951 221.235 0.083 40.218 3.274 82.222 6.297 122.014 0.169 2.222 0.337 4.437 0.504 6.644 1.7 22.454 3.284 44.081 4.269 64.646 0.012 0.5 0.035 0.998 0.070 1.494 0.825 17.709 1.196 34.623 0.802 50.592-0.014 0.544-0.013 1.089 0.001 1.634 0.706 26.721-12.313 41.21-27.614 50.659-8.047 4.969-16.435 8.216-22.988 10.209-3.216 0.978-5.832 1.607-7.527 1.972-0.844 0.182-1.446 0.296-1.766 0.354l-0.246 0.043c-17.376 2.701-29.331 18.933-26.729 36.348zM266.407 637.356c-0.929-14.875-2.046-29.864-3.173-44.748-0.149-1.971-0.299-3.941-0.448-5.909-3.069-40.442-6.092-80.275-6.17-118.043-0.169-81.762 13.85-139.61 55.072-168.973 20.773-14.784 54.904-27.277 98.628-35.767 43.022-8.354 92.443-12.292 141.416-11.904 48.998 0.393 96.567 5.111 135.906 13.594 40.691 8.777 67.763 20.591 80.367 31.863l0.009 0.004c13.521 12.087 26.052 32.619 36.023 60.83 9.822 27.806 16.337 60.74 19.383 94.929 6.234 69.85-2.543 137.462-20.036 172.454-11.614 23.227-23.919 38.552-40.431 48.872-16.747 10.465-41.246 17.912-80.981 18.78-80.589 1.76-258.754-9.278-415.564-55.981zM522.667 512c0 17.673 14.327 32 32 32h118.315c17.673 0 32-14.327 32-32s-14.327-32-32-32h-118.315c-17.673 0-32 14.327-32 32zM309.93 101.231c12.8 0 23.211-10.411 23.211-23.211 0-12.843-10.411-23.253-23.211-23.253-12.843 0-23.253 10.411-23.253 23.253 0 12.8 10.411 23.211 23.253 23.211zM309.93 69.231c4.792 0 8.747 3.874 8.747 8.789 0 4.83-3.916 8.747-8.747 8.747-4.911 0-8.789-3.955-8.789-8.747 0-4.877 3.916-8.789 8.789-8.789zM254.677 78.020c0 30.511 24.776 55.211 55.253 55.211 30.473 0 55.211-24.738 55.211-55.211 0-30.481-24.699-55.253-55.211-55.253-30.516 0-55.253 24.734-55.253 55.253zM750.741 101.231c12.843 0 23.253-10.411 23.253-23.211 0-12.843-10.411-23.253-23.253-23.253-12.8 0-23.211 10.411-23.211 23.253 0 12.8 10.411 23.211 23.211 23.211zM750.741 69.231c4.873 0 8.789 3.913 8.789 8.789 0 4.791-3.878 8.747-8.789 8.747-4.83 0-8.747-3.917-8.747-8.747 0-4.915 3.955-8.789 8.747-8.789zM695.531 78.020c0 30.473 24.738 55.211 55.211 55.211 30.477 0 55.253-24.7 55.253-55.211 0-30.519-24.738-55.253-55.253-55.253-30.511 0-55.211 24.772-55.211 55.253z" />
<glyph unicode="&#xe915;" glyph-name="Chat" d="M649.359 430.379c0 16.968 13.754 30.72 30.72 30.72h0.385c16.966 0 30.72-13.752 30.72-30.72 0-16.966-13.754-30.72-30.72-30.72h-0.385c-16.966 0-30.72 13.754-30.72 30.72zM478.31 430.379c0 16.968 13.754 30.72 30.72 30.72h0.383c16.968 0 30.72-13.752 30.72-30.72 0-16.966-13.752-30.72-30.72-30.72h-0.383c-16.966 0-30.72 13.754-30.72 30.72zM307.259 430.379c0 16.968 13.754 30.72 30.72 30.72h0.385c16.966 0 30.72-13.752 30.72-30.72 0-16.966-13.754-30.72-30.72-30.72h-0.385c-16.966 0-30.72 13.754-30.72 30.72zM791.972 728.062l0.006-0.006c154.78-154.761 154.472-405.481-0.004-559.978l-0.002-0.004c-120.92-120.973-300.122-147.208-446.859-79.346-0.469 0.217-0.944 0.422-1.421 0.614-9.495 3.824-20.318 3.754-26.587 3.578-7.805-0.219-16.82-1.081-26.024-2.152-8.706-1.014-18.301-2.3-28.068-3.611l-2.007-0.268c-10.572-1.419-21.436-2.863-32.319-4.125-22.059-2.558-42.73-4.176-59.307-3.457-8.262 0.358-14.448 1.262-18.744 2.441-1.841 0.506-2.988 0.967-3.627 1.262-0.296 0.639-0.758 1.786-1.263 3.625-1.18 4.295-2.085 10.48-2.444 18.741-0.719 16.579 0.898 37.251 3.457 59.31 1.263 10.885 2.71 21.75 4.129 32.324l0.272 2.028c1.311 9.761 2.599 19.35 3.612 28.049 1.072 9.206 1.937 18.221 2.158 26.026 0.177 6.269 0.247 17.097-3.575 26.591-0.194 0.483-0.4 0.961-0.618 1.432-67.889 146.708-41.624 325.98 79.341 446.921l0.006 0.006c154.456 154.517 405.432 154.517 559.888 0zM835.42 771.504c-178.45 178.514-468.333 178.515-646.784 0.001-138.944-138.917-169.602-344.311-93.122-512.98 0.029-0.772 0.048-1.968 0-3.676-0.143-5.046-0.751-11.911-1.769-20.652-0.949-8.143-2.168-17.222-3.502-27.163l-0.249-1.851c-1.416-10.551-2.932-21.918-4.265-33.415-2.634-22.698-4.75-47.376-3.809-69.054 0.472-10.867 1.745-22.034 4.583-32.36 2.775-10.097 7.66-21.656 16.931-30.929l0.014-0.014c9.274-9.261 20.83-14.139 30.923-16.91 10.323-2.834 21.488-4.104 32.351-4.575 21.673-0.938 46.345 1.176 69.041 3.807 11.495 1.333 22.862 2.847 33.411 4.262l1.815 0.244c9.953 1.335 19.040 2.554 27.193 3.502 8.741 1.018 15.604 1.624 20.648 1.765 1.71 0.049 2.908 0.029 3.68 0 168.679-76.446 374.008-45.836 512.913 93.131 178.432 178.457 178.811 468.077-0.002 646.869z" />
<glyph unicode="&#xe916;" glyph-name="Chevron-left" d="M794.51-26.51c49.987 49.988 49.987 131.032 0 181.020l-293.491 293.49 293.491 293.49c49.987 49.988 49.987 131.033 0 181.020-49.988 49.987-131.032 49.987-181.020 0l-384-384c-49.987-49.988-49.987-131.032 0-181.020l384-384c49.988-49.987 131.032-49.987 181.020 0z" />
<glyph unicode="&#xe917;" glyph-name="Chevron-right" d="M229.49-26.51c-49.987 49.988-49.987 131.032 0 181.020l293.491 293.49-293.491 293.49c-49.987 49.988-49.987 131.033 0 181.020 49.988 49.987 131.032 49.987 181.020 0l384-384c49.987-49.988 49.987-131.032 0-181.020l-384-384c-49.988-49.987-131.032-49.987-181.020 0z" />
<glyph unicode="&#xe918;" glyph-name="close" d="M18.991 941.006c25.322 25.326 66.381 25.324 91.703 0.001l401.305-401.308 401.306 401.307c25.325 25.326 66.382 25.32 91.702 0.002 25.325-25.322 25.325-66.381 0-91.703l-401.306-401.308 401.306-401.303c25.325-25.325 25.325-66.382 0-91.702-12.654-12.654-29.297-18.993-45.848-18.993s-33.194 6.333-45.854 18.993l-401.306 401.306-401.303-401.306c-12.658-12.654-29.3-18.993-45.852-18.993-16.55 0-33.193 6.333-45.851 18.987-25.326 25.325-25.324 66.382-0.001 91.707l401.305 401.306-401.304 401.305c-25.326 25.324-25.32 66.381-0.002 91.702z" />
<glyph unicode="&#xe919;" glyph-name="Document" d="M326.648 290.29c0 16.966 13.754 30.72 30.72 30.72h308.054c16.966 0 30.72-13.754 30.72-30.72s-13.754-30.72-30.72-30.72h-308.054c-16.966 0-30.72 13.754-30.72 30.72zM326.648 450.71c0 16.968 13.754 30.72 30.72 30.72h308.054c16.966 0 30.72-13.752 30.72-30.72 0-16.966-13.754-30.72-30.72-30.72h-308.054c-16.966 0-30.72 13.754-30.72 30.72zM326.656 611.101c0 16.966 13.752 30.72 30.72 30.72h117.545c16.968 0 30.72-13.754 30.72-30.72 0-16.968-13.752-30.72-30.72-30.72h-117.545c-16.968 0-30.72 13.752-30.72 30.72zM209.594 776.959c64.985 71.64 165.902 96.421 302.449 96.421 136.567 0 237.486-24.781 302.467-96.423 64.16-70.738 86.27-179.755 86.27-328.964s-22.11-258.228-86.27-328.964c-64.981-71.641-165.9-96.424-302.467-96.424-136.546 0-237.464 24.783-302.449 96.422-64.166 70.736-86.287 179.755-86.287 328.966s22.121 258.228 86.287 328.965zM255.101 735.678c-47.716-52.603-70.354-140.919-70.354-287.685 0-146.768 22.637-235.084 70.354-287.687 46.897-51.698 124.987-76.261 256.942-76.261 131.979 0 210.067 24.564 256.958 76.261 47.712 52.601 70.339 140.917 70.339 287.687s-22.626 235.084-70.339 287.687c-46.891 51.696-124.979 76.26-256.958 76.26-131.955 0-210.045-24.562-256.942-76.262z" />
<glyph unicode="&#xe91a;" glyph-name="gift" d="M145.067 89.6v358.4h51.2v-358.4c0-23.566 19.102-42.667 42.667-42.667h546.133c23.566 0 42.667 19.101 42.667 42.667v358.4h51.2v-358.4c0-51.842-42.025-93.867-93.867-93.867h-546.133c-51.841 0-93.867 42.025-93.867 93.867zM179.2 678.4c-14.138 0-25.6-11.462-25.6-25.6v-153.6c0-14.138 11.462-25.6 25.6-25.6h665.6c14.138 0 25.6 11.462 25.6 25.6v153.6c0 14.138-11.462 25.6-25.6 25.6h-665.6zM102.4 652.8c0 42.415 34.385 76.8 76.8 76.8h665.6c42.414 0 76.8-34.385 76.8-76.8v-153.6c0-42.414-34.386-76.8-76.8-76.8h-665.6c-42.415 0-76.8 34.386-76.8 76.8v153.6zM512 729.6c14.138 0 25.6-11.462 25.6-25.6v-640c0-14.138-11.462-25.6-25.6-25.6s-25.6 11.462-25.6 25.6v640c0 14.138 11.462 25.6 25.6 25.6zM681.786 740.142c-8.001-5.032-20.698-7.437-38.543-4.339-30.454 5.287-67.198 25.291-96.345 53.534 29.146 28.243 65.891 48.246 96.345 53.533 17.845 3.098 30.543 0.693 38.543-4.339 7.151-4.497 14.664-13.674 17.070-34.141 0.577-4.903 0.877-9.928 0.877-15.054s-0.3-10.151-0.877-15.054c-2.406-20.466-9.919-29.643-17.070-34.141zM512 789.337l-19.668-16.389c36.946-44.335 92.047-78.892 142.152-87.59 25.238-4.381 52.166-2.643 74.561 11.445 23.248 14.622 36.905 39.541 40.663 71.502 0.809 6.887 1.225 13.909 1.225 21.032s-0.416 14.145-1.225 21.032c-3.758 31.961-17.415 56.88-40.663 71.502-22.395 14.088-49.323 15.826-74.561 11.445-50.104-8.699-105.206-43.255-142.152-87.59l19.668-16.389zM342.214 740.142c8.001-5.032 20.698-7.437 38.543-4.339 30.454 5.287 67.198 25.291 96.345 53.534-29.146 28.243-65.891 48.246-96.345 53.533-17.845 3.098-30.543 0.693-38.543-4.339-7.151-4.498-14.665-13.675-17.071-34.141-0.577-4.903-0.876-9.928-0.876-15.054s0.3-10.151 0.876-15.054c2.406-20.466 9.919-29.643 17.071-34.141zM512 789.337l19.668-16.389c-36.946-44.335-92.047-78.892-142.152-87.59-25.238-4.381-52.165-2.643-74.562 11.445-23.248 14.622-36.903 39.541-40.66 71.502-0.81 6.887-1.226 13.909-1.226 21.032s0.417 14.145 1.226 21.032c3.758 31.961 17.413 56.88 40.66 71.502 22.398 14.088 49.324 15.826 74.562 11.445 50.104-8.699 105.206-43.255 142.152-87.59l-19.668-16.389z" />
<glyph unicode="&#xe91b;" glyph-name="Heart" d="M735.629 767.433c-69.047 22.149-152.499 4.811-194.739-59.256-5.786-8.771-15.505-14.145-26.005-14.378-10.505-0.233-20.454 4.704-26.62 13.209-46.029 63.486-128.172 82.307-195.945 60.436l-0.023-0.008c-127.51-41.041-179.59-196.202-137.159-328.699 34.122-106.189 108.75-187.226 184.604-242.091 37.804-27.341 75.311-47.735 107.093-61.188 32.836-13.892 56.482-19.076 67.337-19.076 10.769 0 34.496 5.282 67.575 19.409 31.979 13.658 69.717 34.304 107.674 61.828 76.215 55.258 150.677 136.26 183.603 240.939l0.047 0.154c42.381 132.446-9.929 287.66-137.442 328.722zM513.28 775.395c65.22 66.296 164.407 77.846 241.924 52.972l0.030-0.010c172.48-55.532 227.866-255.669 178.816-409.076-38.345-121.839-123.793-213.103-207.061-273.476-41.792-30.302-83.695-53.321-120.107-68.873-35.315-15.078-68.727-24.55-92.71-24.55-23.876 0-57.079 9.242-92.28 24.141-36.254 15.343-77.973 38.118-119.658 68.267-83.119 60.122-168.509 151.369-208.032 274.381l-0.009 0.026c-49.122 153.364 5.891 353.601 178.486 409.16zM513.28 775.395c-66.086 63.508-161.941 78.335-240.592 52.963zM641.813 640.538c1.805 17.581 17.523 30.368 35.102 28.562 33.813-3.474 62.827-18.973 82.761-44.181 19.725-24.947 28.911-57.245 27.742-92.064-0.589-17.664-15.39-31.501-33.054-30.908s-31.501 15.39-30.908 33.055c0.751 22.399-5.21 39.124-13.982 50.22-8.567 10.834-21.414 18.397-39.1 20.213-17.579 1.806-30.366 17.522-28.561 35.103z" />
<glyph unicode="&#xe91c;" glyph-name="home" d="M475.206 844.447c17.617 13.54 27.937 16.644 36.794 16.644 8.862 0 19.181-3.105 36.799-16.644 18.418-14.151 40.22-36.001 72.518-68.533l201.374-202.806v-228.806c0-110.010-68.226-206.666-168.136-244.205 4.636 24.986 4.664 50.772-0.079 76.051l-0.917 4.883c-10.045 53.518-49.506 96.787-101.935 111.332-25.93 7.196-53.313 7.196-79.248 0-52.426-14.545-91.885-57.814-101.931-111.332l-0.916-4.883c-4.744-25.279-4.716-51.065-0.081-76.051-99.908 37.539-168.137 134.195-168.137 244.205v228.805l201.375 202.807c32.302 32.532 54.103 54.382 72.521 68.533zM892.509 502.793l21.388-21.541c13.587-13.68 35.686-13.759 49.371-0.172 13.68 13.584 13.759 35.687 0.172 49.368l-294.293 296.387c-30.143 30.359-55.226 55.623-77.805 72.974-23.803 18.29-48.924 31.101-79.341 31.101-30.413 0-55.533-12.81-79.336-31.101-22.581-17.351-47.665-42.615-77.807-72.974l-294.293-296.387c-13.585-13.681-13.506-35.784 0.175-49.368 13.681-13.587 35.784-13.507 49.368 0.172l21.385 21.54v-158.491c0-153.26 104.767-286.627 253.336-321.722 83.647-19.763 170.701-19.763 254.348 0 148.568 35.095 253.333 168.462 253.333 321.722v158.491zM576.27 81.869c-42.654-5.725-85.881-5.725-128.536 0-11.384 25.465-14.75 53.881-9.586 81.394l0.917 4.887c5.172 27.555 25.424 49.566 51.98 56.934 13.717 3.807 28.197 3.807 41.914 0 26.554-7.368 46.806-29.379 51.977-56.934l0.917-4.887c5.167-27.513 1.801-55.929-9.584-81.394z" />
<glyph unicode="&#xe91d;" glyph-name="Location" d="M373.771 503.019c0 76.6 62.074 138.69 138.643 138.69 76.608 0 138.692-62.081 138.692-138.69 0-76.57-62.093-138.645-138.692-138.645-76.561 0-138.643 62.084-138.643 138.645zM512.414 577.708c-41.207 0-74.641-33.419-74.641-74.69 0-41.216 33.425-74.645 74.641-74.645 41.271 0 74.692 33.438 74.692 74.645 0 41.263-33.429 74.69-74.692 74.69zM511.979 800c-158.672 0-287.979-130.445-287.979-292.207 0-105.557 45.556-209.754 106.809-287.919 30.507-38.933 64.195-70.468 96.694-92.023 32.99-21.875 62.251-31.851 84.476-31.851 22.238 0 51.511 9.975 84.501 31.851 32.508 21.555 66.197 53.090 96.708 92.023 61.257 78.165 106.812 182.362 106.812 287.919 0 161.757-129.344 292.207-288.021 292.207zM160 507.793c0 196.308 157.166 356.207 351.979 356.207 194.807 0 352.021-159.893 352.021-356.207 0-123.14-52.608-240.841-120.439-327.394-34.035-43.43-72.619-79.962-111.71-105.886-38.609-25.6-80.265-42.513-119.872-42.513-39.599 0-81.246 16.913-119.847 42.513-39.088 25.924-77.667 62.455-111.698 105.886-67.825 86.554-120.433 204.254-120.433 327.394z" />
<glyph unicode="&#xe91e;" glyph-name="menu" d="M106.667 448c0 35.345 28.654 64 64 64h682.65c35.345 0 64-28.655 64-64s-28.655-64-64-64h-682.65c-35.346 0-64 28.655-64 64zM246.744 149.333c0 35.345 28.654 64 64 64h542.589c35.345 0 64-28.655 64-64s-28.655-64-64-64h-542.589c-35.346 0-64 28.655-64 64zM489.468 746.667c0 35.346 28.651 64 64 64h299.866c35.345 0 64-28.654 64-64s-28.655-64-64-64h-299.866c-35.349 0-64 28.654-64 64z" />
<glyph unicode="&#xe91f;" glyph-name="Menu-2" d="M116.364 192h791.273c38.56 0 69.818-31.259 69.818-69.818s-31.259-69.818-69.818-69.818h-791.273c-38.56 0-69.818 31.259-69.818 69.818s31.259 69.818 69.818 69.818zM116.364 843.636h791.273c38.56 0 69.818-31.259 69.818-69.818s-31.259-69.818-69.818-69.818h-791.273c-38.56 0-69.818 31.259-69.818 69.818s31.259 69.818 69.818 69.818z" />
<glyph unicode="&#xe920;" glyph-name="Message" d="M724.002 595.677c11.315 13.571 31.488 15.405 45.065 4.094 13.577-11.313 15.411-31.491 4.1-45.069l-24.585 20.484c24.585-20.484 24.589-20.479 24.585-20.484l-0.158-0.189-0.358-0.424-1.293-1.523c-1.114-1.305-2.726-3.179-4.796-5.539-4.134-4.717-10.103-11.393-17.57-19.377-14.886-15.927-35.9-37.257-60.288-58.688-24.273-21.333-52.578-43.375-82.048-60.245-28.962-16.572-62.063-29.909-95.211-29.909-33.118 0-66.295 13.325-95.363 29.875-29.592 16.849-58.074 38.874-82.531 60.194-24.571 21.419-45.774 42.739-60.803 58.658-7.534 7.98-13.563 14.652-17.74 19.366-2.090 2.359-3.719 4.23-4.844 5.534l-1.305 1.521-0.36 0.423-0.105 0.124-0.034 0.039c-0.004 0.006-0.020 0.025 24.451 20.644l-24.451-20.644c-11.387 13.516-9.683 33.728 3.832 45.115 13.513 11.385 33.695 9.664 45.084-3.845l0.049-0.058 0.239-0.282 1.054-1.228c0.953-1.104 2.397-2.764 4.29-4.9 3.788-4.275 9.361-10.445 16.377-17.876 14.069-14.902 33.75-34.676 56.321-54.35 22.685-19.776 47.603-38.848 72.142-52.821 25.062-14.268 46.746-21.491 63.697-21.491 16.943 0 38.528 7.211 63.42 21.457 24.384 13.956 49.101 33.007 71.59 52.77 22.374 19.663 41.86 39.426 55.782 54.32 6.946 7.427 12.459 13.593 16.201 17.865 1.873 2.135 3.302 3.793 4.241 4.896l1.041 1.226 0.282 0.337zM215.636 730.114c-53.594-51.302-79.016-136.939-79.016-280.783 0-143.825 25.421-229.466 79.017-280.772 54.009-51.703 144.487-76.211 295.33-76.211 150.848 0 241.323 24.508 295.334 76.211 53.594 51.307 79.014 136.947 79.014 280.772 0 143.844-25.421 229.481-79.014 280.783-54.007 51.698-144.486 76.198-295.334 76.198-150.846 0-241.323-24.5-295.331-76.198zM171.381 776.347c72.976 69.854 185.674 93.966 339.587 93.966 153.916 0 266.615-24.112 339.588-93.966 73.391-70.25 98.761-179.105 98.761-327.016 0-147.895-25.37-256.747-98.761-327.002-72.973-69.858-185.668-93.982-339.588-93.982-153.916 0-266.612 24.124-339.587 93.982-73.388 70.255-98.76 179.106-98.76 327.002 0 147.911 25.371 256.765 98.761 327.016z" />
<glyph unicode="&#xe921;" glyph-name="mic" d="M281.758 401.813c17.673 0 32-14.327 32-32 0-109.235 88.543-197.786 197.824-197.786 109.235 0 197.781 88.546 197.781 197.786 0 17.673 14.327 32 32 32 17.677 0 32-14.327 32-32 0-144.585-117.197-261.786-261.781-261.786-144.62 0-261.824 117.197-261.824 261.786 0 17.673 14.327 32 32 32zM249.753 593.133c0 144.587 117.204 261.783 261.825 261.783 144.58 0 261.781-117.201 261.781-261.783v-91.36c0-17.677-14.327-32-32-32s-32 14.323-32 32v91.36c0 109.237-88.546 197.783-197.781 197.783-109.282 0-197.825-88.55-197.825-197.783v-91.36c0-17.677-14.327-32-32-32s-32 14.323-32 32v91.36zM511.582 172.019c17.673 0 32-14.323 32-32v-87.228c0-17.673-14.327-32-32-32s-32 14.327-32 32v87.228c0 17.677 14.327 32 32 32zM190.383 369.813c0 17.673 14.327 32 32 32h578.368c17.677 0 32-14.327 32-32s-14.323-32-32-32h-578.368c-17.673 0-32 14.327-32 32zM415.891 514.061c0 17.677 14.326 32.002 31.998 32.002h127.356c17.677 0 32-14.325 32-32.002 0-17.673-14.323-32-32-32h-127.356c-17.673 0-31.998 14.327-31.998 32zM458.15 632.229c0 17.673 14.327 32 32 32h42.803c17.673 0 32-14.327 32-32s-14.327-32-32-32h-42.803c-17.673 0-32 14.327-32 32z" />
<glyph unicode="&#xe922;" glyph-name="minus" d="M975.863 550.4h-927.726c-26.585 0-48.137-21.551-48.137-48.137v-106.97c0-26.585 21.552-48.137 48.137-48.137h927.726c26.586 0 48.137 21.552 48.137 48.137v106.97c0 26.586-21.551 48.137-48.137 48.137z" />
<glyph unicode="&#xe923;" glyph-name="package" d="M196.267 89.6c-23.564 0-42.667 19.101-42.667 42.667v631.467c0 23.564 19.102 42.667 42.667 42.667h631.467c23.566 0 42.667-19.102 42.667-42.667v-631.467c0-23.566-19.101-42.667-42.667-42.667h-631.467zM102.4 132.267c0-51.842 42.026-93.867 93.867-93.867h631.467c51.842 0 93.867 42.025 93.867 93.867v631.467c0 51.841-42.025 93.867-93.867 93.867h-631.467c-51.841 0-93.867-42.026-93.867-93.867v-631.467zM358.4 192c0 14.138 11.462 25.6 25.6 25.6h256c14.138 0 25.6-11.462 25.6-25.6s-11.462-25.6-25.6-25.6h-256c-14.138 0-25.6 11.462-25.6 25.6zM420.099 806.4v-265.503l71.837 52.169c11.974 8.697 28.187 8.687 40.151-0.027l71.479-52.057v265.417h-183.467zM368.899 823.467c0 18.851 15.281 34.133 34.133 34.133h217.6c18.852 0 34.133-15.282 34.133-34.133v-316.027c0-27.907-31.669-44.022-54.228-27.593l-88.559 64.498-88.89-64.553c-22.562-16.387-54.19-0.266-54.19 27.617v316.058z" />
<glyph unicode="&#xe924;" glyph-name="paper" d="M345.051 300.819c0 19.279 15.629 34.909 34.909 34.909h230.4c19.279 0 34.909-15.63 34.909-34.909s-15.63-34.909-34.909-34.909h-230.4c-19.28 0-34.909 15.63-34.909 34.909zM345.011 471.952c0 19.284 15.629 34.911 34.909 34.911h143.19c19.279 0 34.909-15.628 34.909-34.911 0-19.279-15.63-34.909-34.909-34.909h-143.19c-19.28 0-34.909 15.63-34.909 34.909zM208.212 779.676c66.215 73.031 168.665 97.914 305.487 97.914 39.643 0 76.251-2.199 109.275-6.723 7.261-0.995 14.029-4.251 19.335-9.307l241.92-230.4c5.362-5.105 8.96-11.78 10.277-19.063 8.588-47.468 12.502-102.149 12.502-164.084 0-149.439-22.104-259.882-87.468-331.841-66.281-72.979-168.848-97.731-305.841-97.731-136.788 0-239.251 24.762-305.477 97.741-65.296 71.959-87.404 182.388-87.404 331.832 0 149.247 22.113 259.661 87.394 331.662zM259.936 732.78c-46.612-51.411-69.3-138.331-69.3-284.766 0-146.66 22.692-233.565 69.289-284.914 45.668-50.325 122.192-74.84 253.773-74.84 131.812 0 208.445 24.52 254.161 74.854 46.639 51.344 69.329 138.235 69.329 284.9 0 54.137-3.142 100.79-9.505 140.581l-225.219 214.497c-26.54 3.092-56.194 4.681-88.767 4.681-131.548 0-208.084-24.61-253.763-74.992zM594.53 874.045c19.279 0 34.909-15.629 34.909-34.909v-113.536c0-59.981 48.612-108.579 108.618-108.579h125.91c19.279 0 34.909-15.629 34.909-34.909s-15.63-34.909-34.909-34.909h-125.91c-98.541 0-178.437 79.829-178.437 178.397v113.536c0 19.28 15.63 34.909 34.909 34.909z" />
<glyph unicode="&#xe925;" glyph-name="Password" d="M377.037 495.023c-25.975 0-47.019-21.047-47.019-47.019 0-25.975 21.044-47.019 47.019-47.019s47.019 21.043 47.019 47.019c0 25.963-20.997 46.985-46.908 47.019h-0.111zM266.018 448.004c0 61.321 49.698 111.017 111.019 111.017h0.128c61.295-0.060 110.891-49.781 110.891-111.017 0-61.325-49.698-111.019-111.019-111.019s-111.019 49.694-111.019 111.019zM424.182 448c0 17.673 14.329 32 32.001 32h269.568c17.673 0 32-14.327 32-32v-79.019c0-17.673-14.327-32-32-32s-32 14.327-32 32v47.019h-237.568c-17.673 0-32.001 14.327-32.001 32zM605.099 480c17.673 0 32-14.327 32-32v-79.019c0-17.673-14.327-32-32-32s-32 14.327-32 32v79.019c0 17.673 14.327 32 32 32zM226.297 733.698c-52.18-52.18-76.969-139.483-76.969-285.698s24.788-233.519 76.969-285.696c52.18-52.181 139.484-76.971 285.699-76.971s233.515 24.789 285.696 76.971c52.181 52.177 76.971 139.482 76.971 285.696s-24.789 233.518-76.971 285.698c-52.181 52.18-139.482 76.969-285.696 76.969s-233.519-24.788-285.699-76.969zM181.042 778.953c71.159 71.158 181.189 95.714 330.954 95.714s259.793-24.556 330.953-95.714c71.159-71.159 95.714-181.189 95.714-330.953s-24.555-259.793-95.714-330.953c-71.159-71.159-181.188-95.714-330.953-95.714s-259.795 24.555-330.954 95.714c-71.158 71.159-95.714 181.188-95.714 330.953s24.556 259.794 95.714 330.953z" />
<glyph unicode="&#xe926;" glyph-name="plus" d="M410.269 911.863c0 26.585 21.552 48.137 48.137 48.137h106.97c12.767 0 25.010-5.072 34.038-14.099s14.099-21.271 14.099-34.038v-362.252h362.35c26.586 0 48.137-21.552 48.137-48.137v-106.97c0-26.585-21.551-48.137-48.137-48.137h-362.35v-362.23c0-26.586-21.552-48.137-48.137-48.137h-106.97c-12.767 0-25.011 5.072-34.038 14.098-9.028 9.028-14.099 21.272-14.099 34.039v362.23h-362.132c-26.585 0-48.137 21.552-48.137 48.137v106.97c0 26.585 21.552 48.137 48.137 48.137h362.132v362.252z" />
<glyph unicode="&#xe927;" glyph-name="Presentation" d="M711.055 779.121c-131.458 24.995-266.653 24.995-398.11 0-62.921-11.964-112.905-57.207-129.968-116.171l-2.060-7.117c-25.045-86.547-25.045-178.12 0-264.668l2.060-7.117c17.063-58.962 67.047-104.206 129.968-116.169 131.457-24.996 266.652-24.996 398.11 0 62.921 11.964 112.906 57.207 129.969 116.169l2.058 7.117c25.044 86.548 25.044 178.121 0 264.668l-2.058 7.117c-17.063 58.964-67.048 104.207-129.969 116.171zM300.193 846.186c139.884 26.597 283.729 26.597 423.614 0 87.381-16.615 158.358-79.827 182.791-164.259l2.062-7.117c28.631-98.946 28.631-203.677 0-302.619l-2.062-7.117c-24.433-84.432-95.409-147.647-182.791-164.26-58.723-11.165-118.142-17.644-177.674-19.436v-83.244h78.343c18.852 0 34.133-15.281 34.133-34.133s-15.281-34.133-34.133-34.133h-224.952c-18.852 0-34.133 15.281-34.133 34.133s15.281 34.133 34.133 34.133h78.343v83.244c-59.532 1.792-118.951 8.271-177.673 19.436-87.383 16.613-158.36 79.828-182.793 164.26l-2.060 7.117c-28.633 98.942-28.633 203.677 0 302.62l2.060 7.117c24.433 84.432 95.409 147.645 182.793 164.259zM608.061 441.798c0.362 0.287 0.717 0.567 1.068 0.843l94.655 74.54c14.81 11.663 17.364 33.126 5.7 47.937s-33.126 17.36-47.933 5.697l-94.659-74.54-55.484 72.823c-0.27 0.355-0.546 0.717-0.823 1.082-4.195 5.513-9.175 12.056-14.213 17.094-6.076 6.072-15.688 13.595-29.751 15.38-14.060 1.785-25.248-3.096-32.649-7.458-6.137-3.618-12.595-8.707-18.033-12.998-0.362-0.283-0.717-0.563-1.068-0.84l-94.657-74.544c-14.81-11.663-17.362-33.123-5.698-47.933s33.123-17.36 47.933-5.7l94.659 74.544 55.484-72.823c0.27-0.355 0.546-0.717 0.823-1.082 4.195-5.513 9.175-12.056 14.213-17.094 6.072-6.072 15.688-13.595 29.747-15.38 14.063-1.785 25.252 3.096 32.652 7.455 6.137 3.618 12.595 8.711 18.033 12.998zM448.007 539.092c0 0 0.014-0.014 0.041-0.038zM468.712 536.429c0.034 0.017 0.051 0.027 0.051 0.027zM575.997 484.908c0 0-0.014 0.014-0.044 0.038zM555.288 487.567c-0.031-0.014-0.048-0.024-0.048-0.024z" />
<glyph unicode="&#xe928;" glyph-name="Question" d="M636.268 792.020c-81.736 19.173-166.799 19.173-248.535 0-109.038-25.577-194.176-110.715-219.753-219.753-19.173-81.736-19.173-166.799 0-248.535 25.577-109.038 110.715-194.176 219.753-219.753 81.736-19.172 166.799-19.172 248.538 0 109.036 25.577 194.173 110.715 219.75 219.753 19.172 81.736 19.172 166.799 0 248.535-25.577 109.038-110.715 194.176-219.753 219.753zM376.038 841.868c89.428 20.977 182.495 20.977 271.923 0 127.969-30.018 227.889-129.937 257.907-257.906 20.977-89.428 20.977-182.495 0-271.923-30.019-127.969-129.938-227.889-257.907-257.905-89.428-20.979-182.495-20.979-271.923 0-127.969 30.016-227.888 129.935-257.906 257.905-20.977 89.428-20.977 182.495 0 271.923 30.018 127.969 129.937 227.888 257.906 257.906zM554.668 298.67c0-23.562-19.103-42.665-42.668-42.665-23.562 0-42.665 19.103-42.665 42.665 0 23.565 19.103 42.668 42.665 42.668 23.565 0 42.668-19.103 42.668-42.668zM512 614.4c-32.991 0-59.735-26.744-59.735-59.732v-21.335c0-14.139-11.461-25.6-25.6-25.6s-25.6 11.461-25.6 25.6v21.335c0 61.266 49.667 110.932 110.935 110.932 61.266 0 110.932-49.667 110.932-110.932v-5.176c0-30.794-12.234-60.329-34.007-82.102l-58.824-58.824c-9.999-9.999-26.207-9.999-36.204 0-9.999 9.997-9.999 26.204 0 36.204l58.824 58.824c12.173 12.173 19.011 28.682 19.011 45.898v5.176c0 32.988-26.744 59.732-59.732 59.732z" />
</font>
</defs>
</svg>
